.
Авторизация | Регистрация
Хочешь лучшие торренты? Добавь свой email!
Добавить
» » Весенний поток (1940) SATRip от New-Team торрент скачать бесплатно




    Весенний поток (1940) SATRip от New-Team торрент скачать бесплатно

    Опубликовал: Админ | Дата: 25-05-2015, 12:22 | Просмотров: 155


    Снималось в: СССР
    Создали в: Союздетфильм
    Категория жанра: мелодрама
    Создали в: 1940
    Время просмотра: 01: 25: 19
    Перевод текста: Не требуется
    Субтитры подготовлены: нет
    Оригинальная аудиодорожка: русский
    Главный режиссер: Владимир Юренев

    Актеры

    Валентина Серова, Сергей Днепров, Михаил Астангов, Петр Савин, Наталия Садовская, Александр Зражевский, Надежда Кручинина, Борис Толмазов, Игорь Бут, Ирина Федотова...
    Описание:
    Воспитанница детского дома Надя Кулагина после окончания института приезжает работать в школу, где когда-то училась. После ее появления самый безнадежный ученик Димка Лопатин, которого даже хотели выгнать из школы, становится одним из лучших учеников и верным другом нового классного руководителя…



    Источник: DVB
    Качество фильма видео: SATRip
    Тип видео видео: AVI
    Виде: 640x480 (4: 3), 25 fps, XviD ~ 1085 kbps avg, 0.141 bit/pixel
    Информация о звуке: 48 kHz, MP3 2.0, 128 kbps
    Раздача от:
    MediaInfo

    Общее
    Полное имя : Vesenniy.potok.1940.SATRip-745_New-team_by_AVP_Studio.avi
    Формат : AVI
    Формат/Информация : Audio Video Interleave
    Размер файла : 746 Мбайт
    Продолжительность : 1 ч. 25 м.
    Общий поток : 1222 Кбит/сек
    Программа кодирования : VirtualDubModRus 1.5.10.2 (build 2542/release)
    Библиотека кодирования : VirtualDubMod build 2542/release
    Видео
    Идентификатор : 0
    Формат : MPEG-4 Visual
    Профиль формата : Advanced Simple@L5
    Параметр BVOP формата : 1
    Параметр QPel формата : Нет
    Параметр GMC формата : Без точки перехода
    Параметр матрицы формата : Выборочная
    Идентификатор кодека : XVID
    Идентификатор кодека/Подсказка : XviD
    Продолжительность : 1 ч. 25 м.
    Битрейт : 1085 Кбит/сек
    Ширина : 640 пикселей
    Высота : 480 пикселей
    Соотношение сторон : 4: 3
    Частота кадров : 25, 000 кадров/сек
    Цветовое пространство : YUV
    Субдискретизация насыщенности : 4: 2: 0
    Битовая глубина : 8 бит
    Тип развёртки : Прогрессивная
    Метод сжатия : С потерями
    Бит/(Пиксели*Кадры) : 0.141
    Размер потока : 662 Мбайт (89%)
    Библиотека кодирования : XviD 73
    Аудио
    Идентификатор : 1
    Формат : MPEG Audio
    Версия формата : Version 1
    Профиль формата : Layer 3
    Идентификатор кодека : 55
    Идентификатор кодека/Подсказка : MP3
    Продолжительность : 1 ч. 25 м.
    Вид битрейта : Постоянный
    Битрейт : 128 Кбит/сек
    Каналы : 2 канала
    Частота : 48, 0 КГц
    Метод сжатия : С потерями
    Размер потока : 78, 1 Мбайт (10%)
    Выравнивание : Соединение по промежуткам
    Продолжительность промежутка : 40 мс. (1, 00 видеокадр)
    Время предзагрузки промежутка : 504 мс.
    Библиотека кодирования : LAME3.99r
    Залил: AVPStudio

    Онлайн видео Весенний поток (1940) SATRip от New


    Размер скачиваемого торрента: 745.88 MB (782110720 Bytes)


    Весенний поток (1940) SATRip от New-Team
    загрузка...
    Рейтинг →
     (голосов: 1, оценка 4/5, голосовать можно 1 раз )

    Другие торренты по теме:

  • Сборник - Шальной блатной музон. Весенний выпуск (2015) MP3
  • VA - Весенний Звездный Hit-парад 50-50 [2014, Pop, Club, Dance, MP3]
  • VA - Весенний Автохит от DFM 50-50 [2014, Pop, Dance, MP3]
  • VA - Mega весенний. Super сборник хитов скачать через торрент бесплатно
  • Сборник - Весенний Шансон в Дорогу скачать через торрент бесплатно
  • VA - TOP 100 Лучшая Музыкальная Подборка. Весенний Выпуск 50х50
  • VA - Весенний марафон № 97
  • Сборник - Новинки Шансона. Весенний выпуск скачать через торрент бесплатно


    • Комментарии (0):

      Информация

      Информация

        Посетители, находящиеся в группе Гости, не могут оставлять комментарии в данной новости.

        ↓ Меню



        ↓ Опрос

        Вы добавили сайт в закладки?
        Да
        Нет


        Top 10 за месяц (Фильмы)

        Еврочекин (1-20 выпуски из 20) / Єврочекiн (НЛО ТВ) [2015, путешествия, развлечения, трэвел-шоу, SATRip]
        Еврочекин
        (скачиваний: 6)
        Избранница (1-4 серия из 4) (Оксана Байрак) / [2015, мелодрама, SATRip-AVC]
        Избранница
        (скачиваний: 6)
        Куприн (1-13 серии из 13) (Влад Фурман, Андрей Эшпай мл., Андрей Малюков, Сергей Кешишев) / [2013, драма, экранизация, HDTV]
        Куприн
        (скачиваний: 3)
        Вышибала / Thе Bоunсеr (Мени Яиш ) [2016, драма, HDTVRір] SUB
        Вышибала/The Bouncer
        (скачиваний: 3)
        Когда кричит твоя плоть / When Your Flesh Screams (Cuando tu carne grite Basta) (Гильермо Мартинес) [2015, ужасы, триллер, HDRip-AVC] AVO
        Когда кричит твоя плоть/When Your Flesh Screams
        (скачиваний: 3)
        Валдис Пельш. Путешествие к центру земли. Горный Алтай (Кристина Козлова) / [2016, документальный, природа, география, история, HDTV 1080i]
        Валдис Пельш. Путешествие к центру земли. Горный Алтай
        (скачиваний: 3)
        Тайная жизнь детей / Secret Life of Babies (Барни Ревилл) [2014, документальный, HDTV 1080i]
        Тайная жизнь детей/Secret Life of Babies
        (скачиваний: 3)
        Кто ты - Школа 2015 / Who Are You - School 2015 / Hooayoo - Hakgyo 2015
        Кто ты - Школа 2015,   1 сезон любимого сериала 1-16 серии из 16/Who Are You - School 2015/Hooayoo - Hakgyo 2015 GREEN TEA
        (скачиваний: 3)
        Голова Горгоны
        Голова Горгоны
        (скачиваний: 3)
        Когда мы дома / Коли ми вдома (1-43 серии из 50) скачать через торрент бесплатно
        Когда мы дома/Коли ми вдома
        (скачиваний: 3)