.
Авторизация | Регистрация
Хочешь лучшие торренты? Добавь свой email!
Добавить
» » Навстречу шторму / Into the Storm (2014) BDRip 720p | KinoGadget and KinoXa | iPad торрент скачать бесплатно




    Навстречу шторму / Into the Storm (2014) BDRip 720p | KinoGadget and KinoXa | iPad торрент скачать бесплатно

    Опубликовал: Админ | Дата: 18-05-2015, 10:14 | Просмотров: 161


    Создали в: 2014
    Снималось в: США
    Категория жанра: приключения, боевик, триллер
    Время просмотра: 01: 29: 17
    Перевод текста: Дублированный
    Главный режиссер: Стивен Куэйл

    Актеры
    Ричард Армитедж, Сара Уэйн Кэллис, Мэтт Уолш, Макс Дикон, Натан Кресс, Алисия Дебнем Кери, Арлен Эскарпета, Джереми Самптер, Ли Уитэйкер, Кайл Дэвис
    Описание: Всего лишь за один день невероятное нашествие смерчей практически уничтожило городок Сильверстон. Все его жители были отданы на растерзание непредсказуемым и смертельно опасным торнадо, и при этом метеорологи говорят, что худшее еще впереди. Большинство ищут убежища, в то время как немногие смельчаки идут навстречу стихии, испытывая себя: насколько далеко сможет зайти охотник за торнадо ради одного единственного — зато какого! — снимка.

    Информация о видео кодек: MPEG-4 AVC
    Качество фильма: BDRip 720p
    Параметры Видео: 1280x720, 23.976 fps; ~2 191 kbps avg
    Параметры Звука: 44.1 KHz, AAC, ~149.00 kbps avg, 2ch
    Тип видео: mp4
    Автор рипа:
    Релиз-группа:

    Meta Tags


    MI
    General
    Complete name : E: Navstrechu_shtormu.2014.D.BDRip.720p_KinoGadget.and.KinoXa.mp4
    Format : MPEG-4
    Format profile : Base Media
    Codec ID : isom
    File size : 1.46 GiB
    Duration : 1h 29mn
    Overall bit rate mode : Variable
    Overall bit rate : 2 348 Kbps
    Movie name : Навстречу шторму
    Performer : Стивен Куэйл
    Genre : Action, Thriller
    ContentType : Short Film
    Recorded date : 2014
    Encoded date : UTC 2015-05-08 16: 01: 38
    Tagged date : UTC 2015-05-08 16: 16: 56
    Cover : Yes
    ContentRating : mpaa|PG-13|300|
    LongDeion : Всего лишь за один день невероятное нашествие смерчей практически уничтожило городок Сильверстон. Все его жители были отданы на растерзание непредсказуемым и смертельно опасным торнадо, и при этом метеорологи говорят, что худшее еще впереди. Большинство ищут убежища, в то время как немногие смельчаки идут навстречу стихии, испытывая себя: насколько далеко сможет зайти охотник за торнадо ради одного единственного — зато какого! — снимка.
    HDVideo : Yes
    Video
    ID : 1
    Format : AVC
    Format/Info : Advanced Video Codec
    Format profile : High@L4.1
    Format settings, CABAC : Yes
    Format settings, ReFrames : 9 frames
    Codec ID : avc1
    Codec ID/Info : Advanced Video Coding
    Duration : 1h 29mn
    Bit rate : 2 191 Kbps
    Maximum bit rate : 19.0 Mbps
    Width : 1 280 pixels
    Height : 720 pixels
    Display aspect ratio : 16: 9
    Frame rate mode : Constant
    Frame rate : 23.976 fps
    Color space : YUV
    Chroma subsampling : 4: 2: 0
    Bit depth : 8 bits
    Scan type : Progressive
    Bits/(Pixel*Frame) : 0.099
    Stream size : 1.37 GiB (93%)
    Writing library : x264 core 146 r2538 121396c
    Encoding settings : cabac=1/ref=9/deblock=1: -1: -1/analyse=0x3: 0x133/me=umh/subme=9/psy=1/psy_rd=1.00: 0.20/mixed_ref=1/me_range=24/chroma_me=1/trellis=2/8x8dct=1/cqm=0/deadzone=21, 11/fast_pskip=1/chroma_qp_offset=-3/threads=3/lookahead_threads=1/sliced_threads=0/nr=0/decimate=1/interlaced=0/bluray_compat=0/constrained_intra=0/bframes=6/b_pyramid=2/b_adapt=2/b_bias=0/direct=3/weightb=1/open_gop=0/weightp=2/keyint=240/keyint_min=23/scenecut=40/intra_refresh=0/rc_lookahead=60/rc=crf/mbtree=1/crf=21.0/qcomp=0.60/qpmin=0/qpmax=69/qpstep=4/ip_ratio=1.40/aq=1: 0.50
    Encoded date : UTC 2015-05-08 12: 35: 51
    Tagged date : UTC 2015-05-08 16: 03: 07
    Audio
    ID : 2
    Format : AAC
    Format/Info : Advanced Audio Codec
    Format profile : LC
    Codec ID : 40
    Duration : 1h 29mn
    Bit rate mode : Variable
    Bit rate : 149 Kbps
    Maximum bit rate : 212 Kbps
    Channel count : 2 channels
    Channel positions : Front: L R
    Sampling rate : 44.1 KHz
    Compression mode : Lossy
    Stream size : 95.4 MiB (6%)
    Language : Russian
    Encoded date : UTC 2015-05-08 16: 02: 53
    Tagged date : UTC 2015-05-08 16: 03: 07

    Скриншоты


    Залил: KinoGadget

    Онлайн видео Навстречу шторму


    Размер скачиваемого торрента: 1.46 GB (1572212638 Bytes)

    Навстречу шторму/Into the Storm (2014) BDRip 720p | KinoGadget and KinoXa | iPad
    загрузка...
    Рейтинг →
     (голосов: 1, оценка 3/5, голосовать можно 1 раз )

    Другие торренты по теме:

  • Навстречу шторму / Into the Storm (2014) BDRip 720p | KinoGadget and KinoXa | iPad
  • OST - Навстречу шторму / Into the Storm скачать через торрент бесплатно
  • Навстречу шторму / Into the Storm (Стивен Куэйл) [2014, приключения, боевик, триллер, BDRip 720p] DUB
  • OST - Навстречу шторму / Into the Storm [2014, Score, MP3]


    • Комментарии (0):

      Информация

      Информация

        Посетители, находящиеся в группе Гости, не могут оставлять комментарии в данной новости.

        ↓ Меню



        ↓ Опрос

        Вы добавили сайт в закладки?
        Да
        Нет


        Top 10 за месяц (Фильмы)

        Дорога на Рюбецаль (Адольф Бергункер) / [1971, драма, военный, SАTRір]
        Дорога на Рюбецаль
        (скачиваний: 17)
        Когда мы дома / Коли ми вдома (3 сезон 1-10 серии из 20) (Максим Литвинов, Антон Щербаков) [2017, комедия, SАTRір]
        Когда мы дома/Коли ми вдома
        (скачиваний: 6)
        Еда живая и мертвая / Научное расследование Сергея Малозёмова (Эфир от 17.12.2016) (Эфир от 03.12.2016) (ТК "НТВ") [2016, документальный, SATRip]
        Еда живая  и  мертвая/Научное расследование Сергея Малозёмова
        (скачиваний: 5)
        Музейные тайны (5 сезон: 1-13 серии из 13) / Mysteries at the Museum
        Музейные тайны
        (скачиваний: 5)
        Сквозь туман (Максим Счастнев) / [2017, военный, драма, WЕB-DL 1080р]
        Сквозь туман
        (скачиваний: 4)
        Патриот за границей (Эфир от 05.11.2016) / [2016, ТВ-шоу, SATRip]
        Патриот за границей
        (скачиваний: 4)
        Бешеный конь / Crazy Horse
        Бешеный конь/Crazy Horse
        (скачиваний: 4)
        Инспектор Джордж Джентли, 1-5 сезоны 1-15 серии из 15 / Inspector George Gently [Позитив] (Питер Флэннери) [2007-2012, детектив, криминал
        Инспектор Джордж Джентли,   1-5 сезон любимого сериалаы 1-15 серии из 15/Inspector George Gently Позитив
        (скачиваний: 4)
        Еврочекин (1-20 выпуски из 20) / Єврочекiн (НЛО ТВ) [2015, путешествия, развлечения, трэвел-шоу, SATRip]
        Еврочекин
        (скачиваний: 4)
        Я худею (Эфир от 19.03.2016) (ТК "НТВ") / [2016, Тв-Шоу, SATRip]
        Я худею
        (скачиваний: 4)