.
Авторизация | Регистрация
Хочешь лучшие торренты? Добавь свой email!
Добавить
» » Тахир и Зухра (1946) DVDRip от New-Team торрент скачать бесплатно




    Тахир и Зухра (1946) DVDRip от New-Team торрент скачать бесплатно

    Опубликовал: Админ | Дата: 18-05-2015, 10:14 | Просмотров: 164


    Снималось в: СССР
    Создали в: Студия Ташкент
    Категория жанра: мелодрама, история
    Создали в: 1946
    Время просмотра: 1: 24: 39
    Перевод текста: Не требуется
    Субтитры подготовлены: нет
    Оригинальная аудиодорожка: русский
    Главный режиссер: Наби Ганиев

    Актеры

    Ю. Ризаева, Г. Аглаев, Асад Исматов, Шукур Бурханов, Раззак Хамраев, А. Хидоятов , Абуд Джалилов, С. Талипов, Х. Ганиева , З. Ганиева, Рахим Пирмухамедов, С. Тибибулаев, Малик Юнусов, Эргаш Каримов, Н. Ишмухамедов...
    Описание:
    По мотивам узбекской народной легенды.О трагической любви ханской дочери красавицы Зухры и храброго Тахира, сына военачальника...
    Фильм Тахир и Зухра похож на многочисленные сказки - фильмы, снятые в советские времена. Этакий Морозко на восточный лад.



    Источник: DVD5 R5
    Качество фильма видео: DVDRip
    Тип видео видео: AVI
    Информация о видео: 672x496 (4: 3), 25 fps, XviD ~ 1639 kbps avg, 0.197 bit/pixel
    Информация о звуке: 48 kHz, Dolby Digital AC3 2.0, 192 kbps
    Раздача от:
    MediaInfo

    Общее
    Полное имя : Tahir.i.Zuhra.1946.DVDRip_New-team_by_AVP_Studio.avi
    Формат : AVI
    Формат/Информация : Audio Video Interleave
    Размер файла : 1, 09 Гбайт
    Продолжительность : 1 ч. 24 м.
    Общий поток : 1841 Кбит/сек
    Программа кодирования : VirtualDubModRus 1.5.10.2 (build 2542/release)
    Библиотека кодирования : VirtualDubMod build 2542/release
    Видео
    Идентификатор : 0
    Формат : MPEG-4 Visual
    Профиль формата : Advanced Simple@L5
    Параметр BVOP формата : 1
    Параметр QPel формата : Нет
    Параметр GMC формата : Без точки перехода
    Параметр матрицы формата : Выборочная
    Идентификатор кодека : XVID
    Идентификатор кодека/Подсказка : XviD
    Продолжительность : 1 ч. 24 м.
    Битрейт : 1639 Кбит/сек
    Ширина : 672 пикселя
    Высота : 496 пикселей
    Соотношение сторон : 4: 3
    Частота кадров : 25, 000 кадров/сек
    Цветовое пространство : YUV
    Субдискретизация насыщенности : 4: 2: 0
    Битовая глубина : 8 бит
    Тип развёртки : Прогрессивная
    Метод сжатия : С потерями
    Бит/(Пиксели*Кадры) : 0.197
    Размер потока : 992 Мбайт (89%)
    Библиотека кодирования : XviD 73
    Аудио
    Идентификатор : 1
    Формат : AC-3
    Формат/Информация : Audio Coding 3
    Расширение режима : CM (complete main)
    Параметр Endianness формата : Big
    Идентификатор кодека : 2000
    Продолжительность : 1 ч. 24 м.
    Вид битрейта : Постоянный
    Битрейт : 192 Кбит/сек
    Каналы : 2 канала
    Расположение каналов : Front: L R
    Частота : 48, 0 КГц
    Битовая глубина : 16 бит
    Метод сжатия : С потерями
    Размер потока : 116 Мбайт (10%)
    Выравнивание : Разделение по промежуткам
    Продолжительность промежутка : 40 мс. (1, 00 видеокадр)
    Время предзагрузки промежутка : 500 мс

    Скриншоты



    Залил: AVPStudio

    Онлайн видео Тахир и Зухра (1946) DVDRip от New


    Размер скачиваемого торрента: 1.09 GB (1168611328 Bytes)

    Тахир и Зухра (1946) DVDRip от New-Team
    загрузка...
    Рейтинг →
     (голосов: 1, оценка 3/5, голосовать можно 1 раз )

    Другие торренты по теме:

  • Тахир и Зухра (1946) DVDRip от New-Team


    • Комментарии (0):

      Информация

      Информация

        Посетители, находящиеся в группе Гости, не могут оставлять комментарии в данной новости.

        ↓ Меню



        ↓ Опрос

        Вы добавили сайт в закладки?
        Да
        Нет


        Top 10 за месяц (Фильмы)

        Дорога на Рюбецаль (Адольф Бергункер) / [1971, драма, военный, SАTRір]
        Дорога на Рюбецаль
        (скачиваний: 15)
        Когда мы дома / Коли ми вдома (3 сезон 1-10 серии из 20) (Максим Литвинов, Антон Щербаков) [2017, комедия, SАTRір]
        Когда мы дома/Коли ми вдома
        (скачиваний: 6)
        Музейные тайны (5 сезон: 1-13 серии из 13) / Mysteries at the Museum
        Музейные тайны
        (скачиваний: 5)
        Еда живая и мертвая / Научное расследование Сергея Малозёмова (Эфир от 17.12.2016) (Эфир от 03.12.2016) (ТК "НТВ") [2016, документальный, SATRip]
        Еда живая  и  мертвая/Научное расследование Сергея Малозёмова
        (скачиваний: 5)
        Патриот за границей (Эфир от 05.11.2016) / [2016, ТВ-шоу, SATRip]
        Патриот за границей
        (скачиваний: 4)
        Я худею (Эфир от 19.03.2016) (ТК "НТВ") / [2016, Тв-Шоу, SATRip]
        Я худею
        (скачиваний: 4)
        Сквозь туман (Максим Счастнев) / [2017, военный, драма, WЕB-DL 1080р]
        Сквозь туман
        (скачиваний: 4)
        Затерянный город / Загублене місто
        Затерянный город/Загублене місто
        (скачиваний: 4)
        Еврочекин (1-20 выпуски из 20) / Єврочекiн (НЛО ТВ) [2015, путешествия, развлечения, трэвел-шоу, SATRip]
        Еврочекин
        (скачиваний: 4)
        Инспектор Джордж Джентли, 1-5 сезоны 1-15 серии из 15 / Inspector George Gently [Позитив] (Питер Флэннери) [2007-2012, детектив, криминал
        Инспектор Джордж Джентли,   1-5 сезон любимого сериалаы 1-15 серии из 15/Inspector George Gently Позитив
        (скачиваний: 4)