.
Авторизация | Регистрация
Хочешь лучшие торренты? Добавь свой email!
Добавить
» » Старинный водевиль (1946) DVDRip от New-Team торрент скачать бесплатно




    Старинный водевиль (1946) DVDRip от New-Team торрент скачать бесплатно

    Опубликовал: Админ | Дата: 25-05-2015, 12:22 | Просмотров: 171


    Снималось в: СССР
    Создали в: Мосфильм
    Категория жанра: мюзикл, комедия
    Создали в: 1946
    Время просмотра: 01: 05: 43
    Перевод текста: Не требуется
    Субтитры подготовлены: нет
    Оригинальная аудиодорожка: русский
    Главный режиссер: Игорь Савченко

    Актеры

    Максим Штраух, Елена Швецова, Анна Лисянская, Николай Гриценко, Сергей Столяров, Александра Панова, А. Павлова, В. Рябцева, Людмила Семенова, Н. Сокол, Аркадий Цинман...
    Описание:
    После победы над Наполеоном русские войска возвращаются в Москву… Восемнадцатилетняя Любочка получит наследство своей тетушки при условии, что выйдет замуж за человека, имя и фамилия которого начинаются с букв аз и ферт. Люба влюблена в молодого гусара Антона Фадеева, но ее отец не хочет и слышать о свадьбе дочери с бедным офицером. После веселых неурядиц клубок противоречий распутывается ко всеобщему благополучию…




    Источник: DVD5 R5
    Качество фильма видео: DVDRip
    Тип видео видео: AVI
    Информация о видео: 688x512 (4: 3), 25 fps, XviD ~ 1448 kbps avg, 0.164 bit/pixel
    Информация о звуке: 48 kHz, MP3 2.0, 128 kbps
    Раздача от:
    MediaInfo

    Общее
    Полное имя : Starinnyy.vodevil.1946.DVDRip-745_New-team_by_AVP_Studio.avi
    Формат : AVI
    Формат/Информация : Audio Video Interleave
    Размер файла : 745 Мбайт
    Продолжительность : 1 ч. 5 м.
    Общий поток : 1586 Кбит/сек
    Программа кодирования : VirtualDubModRus 1.5.10.2 (build 2542/release)
    Библиотека кодирования : VirtualDubMod build 2542/release
    Видео
    Идентификатор : 0
    Формат : MPEG-4 Visual
    Профиль формата : Advanced Simple@L5
    Параметр BVOP формата : 1
    Параметр QPel формата : Нет
    Параметр GMC формата : Без точки перехода
    Параметр матрицы формата : Выборочная
    Идентификатор кодека : XVID
    Идентификатор кодека/Подсказка : XviD
    Продолжительность : 1 ч. 5 м.
    Битрейт : 1448 Кбит/сек
    Ширина : 688 пикселей
    Высота : 512 пикселей
    Соотношение сторон : 4: 3
    Частота кадров : 25, 000 кадров/сек
    Цветовое пространство : YUV
    Субдискретизация насыщенности : 4: 2: 0
    Битовая глубина : 8 бит
    Тип развёртки : Прогрессивная
    Метод сжатия : С потерями
    Бит/(Пиксели*Кадры) : 0.164
    Размер потока : 681 Мбайт (91%)
    Библиотека кодирования : XviD 73
    Аудио
    Идентификатор : 1
    Формат : MPEG Audio
    Версия формата : Version 1
    Профиль формата : Layer 3
    Идентификатор кодека : 55
    Идентификатор кодека/Подсказка : MP3
    Продолжительность : 1 ч. 5 м.
    Вид битрейта : Постоянный
    Битрейт : 128 Кбит/сек
    Каналы : 2 канала
    Частота : 48, 0 КГц
    Метод сжатия : С потерями
    Размер потока : 60, 2 Мбайт (8%)
    Выравнивание : Соединение по промежуткам
    Продолжительность промежутка : 40 мс. (1, 00 видеокадр)
    Время предзагрузки промежутка : 504 мс.
    Библиотека кодирования : LAME3.99r
    Залил: AVPStudio

    Онлайн видео Старинный водевиль (1946) DVDRip от New


    Размер скачиваемого торрента: 745.24 MB (781443072 Bytes)


    Старинный водевиль (1946) DVDRip от New-Team
    загрузка...
    Рейтинг →
     (голосов: 1, оценка 5/5, голосовать можно 1 раз )

    Другие торренты по теме:

  • Похождения Шипова, или Старинный водевиль (Сергей Грицай) / [2011, водевиль, TVRip]
  • Старинный водевиль (1946) DVDRip-AVC от New-Team
  • Старинный водевиль (1946) DVDRip от New-Team


    • Комментарии (0):

      Информация

      Информация

        Посетители, находящиеся в группе Гости, не могут оставлять комментарии в данной новости.

        ↓ Меню



        ↓ Опрос

        Вы добавили сайт в закладки?
        Да
        Нет


        Top 10 за месяц (Фильмы)

        Дорога на Рюбецаль (Адольф Бергункер) / [1971, драма, военный, SАTRір]
        Дорога на Рюбецаль
        (скачиваний: 17)
        Когда мы дома / Коли ми вдома (3 сезон 1-10 серии из 20) (Максим Литвинов, Антон Щербаков) [2017, комедия, SАTRір]
        Когда мы дома/Коли ми вдома
        (скачиваний: 6)
        Музейные тайны (5 сезон: 1-13 серии из 13) / Mysteries at the Museum
        Музейные тайны
        (скачиваний: 5)
        Еда живая и мертвая / Научное расследование Сергея Малозёмова (Эфир от 17.12.2016) (Эфир от 03.12.2016) (ТК "НТВ") [2016, документальный, SATRip]
        Еда живая  и  мертвая/Научное расследование Сергея Малозёмова
        (скачиваний: 5)
        Я худею (Эфир от 19.03.2016) (ТК "НТВ") / [2016, Тв-Шоу, SATRip]
        Я худею
        (скачиваний: 4)
        Патриот за границей (Эфир от 05.11.2016) / [2016, ТВ-шоу, SATRip]
        Патриот за границей
        (скачиваний: 4)
        Сквозь туман (Максим Счастнев) / [2017, военный, драма, WЕB-DL 1080р]
        Сквозь туман
        (скачиваний: 4)
        Затерянный город / Загублене місто
        Затерянный город/Загублене місто
        (скачиваний: 4)
        Еврочекин (1-20 выпуски из 20) / Єврочекiн (НЛО ТВ) [2015, путешествия, развлечения, трэвел-шоу, SATRip]
        Еврочекин
        (скачиваний: 4)
        Инспектор Джордж Джентли, 1-5 сезоны 1-15 серии из 15 / Inspector George Gently [Позитив] (Питер Флэннери) [2007-2012, детектив, криминал
        Инспектор Джордж Джентли,   1-5 сезон любимого сериалаы 1-15 серии из 15/Inspector George Gently Позитив
        (скачиваний: 4)