.
Авторизация | Регистрация
Хочешь лучшие торренты? Добавь свой email!
Добавить
» » Первая перчатка (1946) DVDRip от New-Team торрент скачать бесплатно




    Первая перчатка (1946) DVDRip от New-Team торрент скачать бесплатно

    Опубликовал: Админ | Дата: 21-05-2015, 15:04 | Просмотров: 257


    Снималось в: СССР
    Создали в: Мосфильм
    Категория жанра: комедия
    Создали в: 1946
    Время просмотра: 01: 18: 38
    Перевод текста: Не требуется
    Субтитры подготовлены: нет
    Оригинальная аудиодорожка: русский
    Главный режиссер: Андрей Фролов

    Актеры

    Владимир Володин, Иван Переверзев, Надежда Чередниченко, Сергей Блинников, Владимир Грибков, Анастасия Зуева, Павел Оленев, Эммануил Геллер, Афанасий Белов, Тамара Говоркова...
    Описание:
    Молодой сибиряк Никита Крутиков — начинающий боксер. Ему прочат блестящую спортивную карьеру, чемпионский титул, но он влюблен, готов жениться и уехать с любимой домой, в Сибирь. Его тренер прилагает массу усилий, чтобы вернуть Никиту в спорт…



    Источник: DVD5 R5
    Качество фильма видео: DVDRip
    Тип видео видео: AVI
    Информация о видео: 640x480 (4: 3), 25 fps, XviD ~ 1184 kbps avg, 0.154 bit/pixel
    Информация о звуке: 48 kHz, MP3 2.0, 128 kbps
    Раздача от:
    MediaInfo

    Общее
    Полное имя : Pervaya.perchatka.1946.DVDRip-745_New-team_by_AVP_Studio.avi
    Формат : AVI
    Формат/Информация : Audio Video Interleave
    Размер файла : 744 Мбайт
    Продолжительность : 1 ч. 18 м.
    Общий поток : 1322 Кбит/сек
    Программа кодирования : VirtualDubModRus 1.5.10.2 (build 2542/release)
    Библиотека кодирования : VirtualDubMod build 2542/release
    Видео
    Идентификатор : 0
    Формат : MPEG-4 Visual
    Профиль формата : Advanced Simple@L5
    Параметр BVOP формата : 1
    Параметр QPel формата : Нет
    Параметр GMC формата : Без точки перехода
    Параметр матрицы формата : Выборочная
    Идентификатор кодека : XVID
    Идентификатор кодека/Подсказка : XviD
    Продолжительность : 1 ч. 18 м.
    Битрейт : 1184 Кбит/сек
    Ширина : 640 пикселей
    Высота : 480 пикселей
    Соотношение сторон : 4: 3
    Частота кадров : 25, 000 кадров/сек
    Цветовое пространство : YUV
    Субдискретизация насыщенности : 4: 2: 0
    Битовая глубина : 8 бит
    Тип развёртки : Прогрессивная
    Метод сжатия : С потерями
    Бит/(Пиксели*Кадры) : 0.154
    Размер потока : 666 Мбайт (90%)
    Библиотека кодирования : XviD 73
    Аудио
    Идентификатор : 1
    Формат : MPEG Audio
    Версия формата : Version 1
    Профиль формата : Layer 3
    Идентификатор кодека : 55
    Идентификатор кодека/Подсказка : MP3
    Продолжительность : 1 ч. 18 м.
    Вид битрейта : Постоянный
    Битрейт : 128 Кбит/сек
    Каналы : 2 канала
    Частота : 48, 0 КГц
    Метод сжатия : С потерями
    Размер потока : 72, 0 Мбайт (10%)
    Выравнивание : Соединение по промежуткам
    Продолжительность промежутка : 40 мс. (1, 00 видеокадр)
    Время предзагрузки промежутка : 504 мс

    Скриншоты



    Залил: AVPStudio

    Онлайн видео Первая перчатка (1946) DVDRip от New


    Размер скачиваемого торрента: 743.59 MB (779714560 Bytes)

    Первая перчатка (1946) DVDRip от New-Team
    загрузка...
    Рейтинг →
     (голосов: 1, оценка 3/5, голосовать можно 1 раз )

    Другие торренты по теме:

  • Первая перчатка (1946) DVDRip от New-Team


    • Комментарии (0):

      Информация

      Информация

        Посетители, находящиеся в группе Гости, не могут оставлять комментарии в данной новости.

        ↓ Меню



        ↓ Опрос

        Вы добавили сайт в закладки?
        Да
        Нет


        Top 10 за месяц (Фильмы)

        Еврочекин (1-20 выпуски из 20) / Єврочекiн (НЛО ТВ) [2015, путешествия, развлечения, трэвел-шоу, SATRip]
        Еврочекин
        (скачиваний: 6)
        Избранница (1-4 серия из 4) (Оксана Байрак) / [2015, мелодрама, SATRip-AVC]
        Избранница
        (скачиваний: 4)
        Янтарный Барон (1-12 серии из 12)
        Янтарный Барон
        (скачиваний: 3)
        Куприн (1-13 серии из 13) (Влад Фурман, Андрей Эшпай мл., Андрей Малюков, Сергей Кешишев) / [2013, драма, экранизация, HDTV]
        Куприн
        (скачиваний: 3)
        Когда кричит твоя плоть / When Your Flesh Screams (Cuando tu carne grite Basta) (Гильермо Мартинес) [2015, ужасы, триллер, HDRip-AVC] AVO
        Когда кричит твоя плоть/When Your Flesh Screams
        (скачиваний: 3)
        Валдис Пельш. Путешествие к центру земли. Горный Алтай (Кристина Козлова) / [2016, документальный, природа, география, история, HDTV 1080i]
        Валдис Пельш. Путешествие к центру земли. Горный Алтай
        (скачиваний: 3)
        Тайная жизнь детей / Secret Life of Babies (Барни Ревилл) [2014, документальный, HDTV 1080i]
        Тайная жизнь детей/Secret Life of Babies
        (скачиваний: 3)
        Кто ты - Школа 2015 / Who Are You - School 2015 / Hooayoo - Hakgyo 2015
        Кто ты - Школа 2015,   1 сезон любимого сериала 1-16 серии из 16/Who Are You - School 2015/Hooayoo - Hakgyo 2015 GREEN TEA
        (скачиваний: 3)
        Светофор (Владимир Васильев) / [1970, музыкальная комедия, короткометражный, DVDScreener]
        Светофор
        (скачиваний: 3)
        Голова Горгоны
        Голова Горгоны
        (скачиваний: 3)