.
Авторизация | Регистрация
Хочешь лучшие торренты? Добавь свой email!
Добавить
» » Старинный водевиль (1946) DVDRip от New-Team торрент скачать бесплатно




    Старинный водевиль (1946) DVDRip от New-Team торрент скачать бесплатно

    Опубликовал: Админ | Дата: 25-05-2015, 12:22 | Просмотров: 172


    Снималось в: СССР
    Создали в: Мосфильм
    Категория жанра: мюзикл, комедия
    Создали в: 1946
    Время просмотра: 01: 05: 43
    Перевод текста: Не требуется
    Субтитры подготовлены: нет
    Оригинальная аудиодорожка: русский
    Главный режиссер: Игорь Савченко

    Актеры

    Максим Штраух, Елена Швецова, Анна Лисянская, Николай Гриценко, Сергей Столяров, Александра Панова, А. Павлова, В. Рябцева, Людмила Семенова, Н. Сокол, Аркадий Цинман...
    Описание:
    После победы над Наполеоном русские войска возвращаются в Москву… Восемнадцатилетняя Любочка получит наследство своей тетушки при условии, что выйдет замуж за человека, имя и фамилия которого начинаются с букв аз и ферт. Люба влюблена в молодого гусара Антона Фадеева, но ее отец не хочет и слышать о свадьбе дочери с бедным офицером. После веселых неурядиц клубок противоречий распутывается ко всеобщему благополучию…




    Источник: DVD5 R5
    Качество фильма видео: DVDRip
    Тип видео видео: AVI
    Информация о видео: 688x512 (4: 3), 25 fps, XviD ~ 2170 kbps avg, 0.246 bit/pixel
    Информация о звуке: 48 kHz, Dolby Digital AC3 2.0, 192 kbps
    Раздача от:
    MediaInfo

    Общее
    Полное имя : Starinnyy.vodevil.1946.DVDRip_New-team_by_AVP_Studio.avi
    Формат : AVI
    Формат/Информация : Audio Video Interleave
    Размер файла : 1, 09 Гбайт
    Продолжительность : 1 ч. 5 м.
    Общий поток : 2372 Кбит/сек
    Программа кодирования : VirtualDubModRus 1.5.10.2 (build 2542/release)
    Библиотека кодирования : VirtualDubMod build 2542/release
    Видео
    Идентификатор : 0
    Формат : MPEG-4 Visual
    Профиль формата : Advanced Simple@L5
    Параметр BVOP формата : 1
    Параметр QPel формата : Нет
    Параметр GMC формата : Без точки перехода
    Параметр матрицы формата : Выборочная
    Идентификатор кодека : XVID
    Идентификатор кодека/Подсказка : XviD
    Продолжительность : 1 ч. 5 м.
    Битрейт : 2170 Кбит/сек
    Ширина : 688 пикселей
    Высота : 512 пикселей
    Соотношение сторон : 4: 3
    Частота кадров : 25, 000 кадров/сек
    Цветовое пространство : YUV
    Субдискретизация насыщенности : 4: 2: 0
    Битовая глубина : 8 бит
    Тип развёртки : Прогрессивная
    Метод сжатия : С потерями
    Бит/(Пиксели*Кадры) : 0.246
    Размер потока : 1020 Мбайт (91%)
    Библиотека кодирования : XviD 73
    Аудио
    Идентификатор : 1
    Формат : AC-3
    Формат/Информация : Audio Coding 3
    Расширение режима : CM (complete main)
    Параметр Endianness формата : Big
    Идентификатор кодека : 2000
    Продолжительность : 1 ч. 5 м.
    Вид битрейта : Постоянный
    Битрейт : 192 Кбит/сек
    Каналы : 2 канала
    Расположение каналов : Front: L R
    Частота : 48, 0 КГц
    Битовая глубина : 16 бит
    Метод сжатия : С потерями
    Размер потока : 90, 2 Мбайт (8%)
    Выравнивание : Разделение по промежуткам
    Продолжительность промежутка : 40 мс. (1, 00 видеокадр)
    Время предзагрузки промежутка : 500 мс

    Скриншоты



    Залил: AVPStudio

    Онлайн видео Старинный водевиль (1946) DVDRip от New


    Размер скачиваемого торрента: 1.09 GB (1168857088 Bytes)

    Старинный водевиль (1946) DVDRip от New-Team
    загрузка...
    Рейтинг →
     (голосов: 1, оценка 5/5, голосовать можно 1 раз )

    Другие торренты по теме:

  • Похождения Шипова, или Старинный водевиль (Сергей Грицай) / [2011, водевиль, TVRip]
  • Старинный водевиль (1946) DVDRip-AVC от New-Team
  • Старинный водевиль (1946) DVDRip от New-Team


    • Комментарии (0):

      Информация

      Информация

        Посетители, находящиеся в группе Гости, не могут оставлять комментарии в данной новости.

        ↓ Меню



        ↓ Опрос

        Вы добавили сайт в закладки?
        Да
        Нет


        Top 10 за месяц (Фильмы)

        Еврочекин (1-20 выпуски из 20) / Єврочекiн (НЛО ТВ) [2015, путешествия, развлечения, трэвел-шоу, SATRip]
        Еврочекин
        (скачиваний: 6)
        Избранница (1-4 серия из 4) (Оксана Байрак) / [2015, мелодрама, SATRip-AVC]
        Избранница
        (скачиваний: 4)
        Куприн (1-13 серии из 13) (Влад Фурман, Андрей Эшпай мл., Андрей Малюков, Сергей Кешишев) / [2013, драма, экранизация, HDTV]
        Куприн
        (скачиваний: 3)
        Янтарный Барон (1-12 серии из 12)
        Янтарный Барон
        (скачиваний: 3)
        Когда кричит твоя плоть / When Your Flesh Screams (Cuando tu carne grite Basta) (Гильермо Мартинес) [2015, ужасы, триллер, HDRip-AVC] AVO
        Когда кричит твоя плоть/When Your Flesh Screams
        (скачиваний: 3)
        Тайная жизнь детей / Secret Life of Babies (Барни Ревилл) [2014, документальный, HDTV 1080i]
        Тайная жизнь детей/Secret Life of Babies
        (скачиваний: 3)
        Когда мы дома / Коли ми вдома (1-43 серии из 50) скачать через торрент бесплатно
        Когда мы дома/Коли ми вдома
        (скачиваний: 3)
        Светофор (Владимир Васильев) / [1970, музыкальная комедия, короткометражный, DVDScreener]
        Светофор
        (скачиваний: 3)
        Валдис Пельш. Путешествие к центру земли. Горный Алтай (Кристина Козлова) / [2016, документальный, природа, география, история, HDTV 1080i]
        Валдис Пельш. Путешествие к центру земли. Горный Алтай
        (скачиваний: 3)
        Голова Горгоны
        Голова Горгоны
        (скачиваний: 3)