.
Авторизация | Регистрация
Хочешь лучшие торренты? Добавь свой email!
Добавить
» » Восприятие / Perception (2014-2015) WEBRip 720p | L торрент скачать бесплатно




    Восприятие / Perception (2014-2015) WEBRip 720p | L торрент скачать бесплатно

    Опубликовал: Админ | Дата: 25-05-2015, 12:21 | Просмотров: 154


    Детально о кино
    Русское название: Восприятие
    Русское название в мировом прокате: Perception 03x06-14 из 15 (2014-2015) Padabajour
    Создали в: 2014-2015
    Категория жанра: Криминальный триллер, психологический детектив
    Главный режиссер: Крис Мисиано, Грег Биман, Кеннет Биллер

    Актеры
    Эрик Маккормак, Рэйчел Ли Кук, Келли Роуэн, Эрджей Смит, Джонатан Скарф, Кристофер Чен, Лиза Бейнс, Джимми Беннетт, Бриджет Риган, ЛеВар Бертон

    Сюжет фильма

    Доктор Дэниел Пирс — талантливый , но эксцентричный нейробиолог, которого пригласили в ФБР для оказания помощи в расследовании наиболее сложных дел. Доктор Пирс работает в тесном сотрудничестве с Кейт Моретти, бывшей студенткой, которая и завербовала его для работы с Бюро. Также в команде есть Макс Левики — ассистент доктора Пирса и Натали Винсент — его лучший друг.
    Разгадывать сложнейшие загадки доктору помогают его галлюцинации, ведь Пирс страдает шизофренией и его болезнь бывает крайне полезна в расследовании сложнейших дел.

    Снималось в: США
    Время просмотра: 42: 00
    Перевод текста: Любительский (многоголосый закадровый)
    Файл
    Кодек для видео: Xvid
    Качество фильма: WEBRip 720p
    Информация о видео: Xvid, 1280x720, 23.97, 4 227 Kbps
    Информация о звуке: mp3, 48000Hz, 2 ch, 160 kbps , 0.171 kbps
    Семпл
    Скриншоты


    MediaInfo

    Video
    ID : 0
    Format : MPEG-4 Visual
    Format profile : Advanced Simple@L5
    Format settings, BVOP : 2
    Format settings, QPel : No
    Format settings, GMC : No warppoints
    Format settings, Matrix : Default (H.263)
    Muxing mode : Packed bitstream
    Codec ID : XVID
    Codec ID/Hint : XviD
    Duration : 40mn 33s
    Bit rate : 4 227 Kbps
    Width : 1 280 pixels
    Height : 720 pixels
    Display aspect ratio : 16: 9
    Frame rate : 23.976 fps
    Color space : YUV
    Chroma subsampling : 4: 2: 0
    Bit depth : 8 bits
    Scan type : Progressive
    Compression mode : Lossy
    Bits/(Pixel*Frame) : 0.191
    Stream size : 1.20 GiB (96%)
    Writing library : XviD 64
    Audio
    ID : 1
    Format : MPEG Audio
    Format version : Version 1
    Format profile : Layer 3
    Mode : Joint stereo
    Codec ID : 55
    Codec ID/Hint : MP3
    Duration : 40mn 33s
    Bit rate mode : Constant
    Bit rate : 160 Kbps
    Channel(s) : 2 channels
    Sampling rate : 48.0 KHz
    Compression mode : Lossy
    Stream size : 46.4 MiB (4%)
    Alignment : Split accross interleaves
    Interleave, duration : 42 ms (1.00 video frame)
    Interleave, preload duration : 500 ms

    Релиз подготовил: Padabajour
    Залил: Reptil

    Онлайн видео Восприятие


    Размер скачиваемого торрента: 10.85 GB (11649274994 Bytes)

    Восприятие/Perception (2014-2015) WEBRip 720p | L
    загрузка...
    Рейтинг →
     (голосов: 1, оценка 4/5, голосовать можно 1 раз )

    Другие торренты по теме:

  • Восприятие, 3 сезон 1-3 серии / Perception
  • Восприятие, 3 Сезон 6-14 серии из 15 / Perception
  • Восприятие, 1-2 сезоны 1-24 серии / Perception
  • Восприятие, 3 сезон 6-14 серии / Perception [Padabajour] (Крис Мисиано, Грег Биман, Кеннет Биллер) [2014-2015, триллер, детектив, WEB-DLRip, L]
  • Восприятие, 3 сезон 1-10 серии / Perception [To4ka] (Грег Биман) [2014, триллер, драма, криминал, детектив, WEB-DLRip, L]
  • [КПК] Восприятие, 1-2 сезоны 1-24 серии / Perception (2012-2013) [TVRip, MP4, H.264, AAC] MVO [To4ka]


    • Комментарии (0):

      Информация

      Информация

        Посетители, находящиеся в группе Гости, не могут оставлять комментарии в данной новости.

        ↓ Меню



        ↓ Опрос

        Вы добавили сайт в закладки?
        Да
        Нет


        Top 10 за месяц (Фильмы)

        Избранница (1-4 серия из 4) (Оксана Байрак) / [2015, мелодрама, SATRip-AVC]
        Избранница
        (скачиваний: 6)
        Еврочекин (1-20 выпуски из 20) / Єврочекiн (НЛО ТВ) [2015, путешествия, развлечения, трэвел-шоу, SATRip]
        Еврочекин
        (скачиваний: 6)
        Когда мы дома / Коли ми вдома (1-43 серии из 50) скачать через торрент бесплатно
        Когда мы дома/Коли ми вдома
        (скачиваний: 5)
        Тайная жизнь детей / Secret Life of Babies (Барни Ревилл) [2014, документальный, HDTV 1080i]
        Тайная жизнь детей/Secret Life of Babies
        (скачиваний: 4)
        Светофор (Владимир Васильев) / [1970, музыкальная комедия, короткометражный, DVDScreener]
        Светофор
        (скачиваний: 3)
        Голова Горгоны
        Голова Горгоны
        (скачиваний: 3)
        Куприн (1-13 серии из 13) (Влад Фурман, Андрей Эшпай мл., Андрей Малюков, Сергей Кешишев) / [2013, драма, экранизация, HDTV]
        Куприн
        (скачиваний: 3)
        Вышибала / Thе Bоunсеr (Мени Яиш ) [2016, драма, HDTVRір] SUB
        Вышибала/The Bouncer
        (скачиваний: 3)
        Янтарный Барон (1-12 серии из 12)
        Янтарный Барон
        (скачиваний: 3)
        Бесогон ТВ. Хочет ли Серебренников быть Мейерхольдом / [Эфир от 22.09.2017] (Никита Михалков) [2017, документальный, авторская, информацио
        Бесогон ТВ. Хочет ли Серебренников быть Мейерхольдом? Эфир от 22.09.2017
        (скачиваний: 3)