.
Авторизация | Регистрация
Хочешь лучшие торренты? Добавь свой email!
Добавить
» » Центр нападения (1946) DVDRip от New-Team торрент скачать бесплатно




    Центр нападения (1946) DVDRip от New-Team торрент скачать бесплатно

    Опубликовал: Админ | Дата: 19-05-2015, 14:03 | Просмотров: 201


    Снималось в: СССР
    Создали в: Киевская киностудия
    Категория жанра: спорт
    Создали в: 1946
    Время просмотра: 01: 11: 17
    Перевод текста: Не требуется
    Субтитры подготовлены: нет
    Оригинальная аудиодорожка: русский
    Главный режиссер: Семен Деревянский, Игорь Земгано

    Актеры

    Екатерина Деревщикова, Виталий Доронин, Борис Толмазов, Юрий Лавров, Владимир Лепко, Юрий Тимошенко, Виктор Селезнев, Андрей Сова, Михаил Высоцкий, Лидия Карташова, Семен Деревянский...
    Описание:
    Инженер-конструктор, являющийся к тому же лучшим футболистом города - центром нападения футбольной команды Метеор, не задумываясь оставляет свою команду и любимую девушку, когда трудовые обязанности потребовали от него переезда в другой город. Друг-вратарь расценивает его поступок как предательство. Они встречаются на поле как соперники. После забавных перипетий друзья примиряются...



    Источник: DVD5 R5
    Качество фильма видео: DVDRip
    Тип видео видео: AVI
    Информация о видео: 688x512 (4: 3), 25 fps, XviD ~ 1325 kbps avg, 0.150 bit/pixel
    Информация о звуке: 48 kHz, MP3 2.0, 128 kbps
    Раздача от:
    MediaInfo

    Общее
    Полное имя : Centr.napadeniya.1946.DVDRip-745_New-team_by_AVP_Studio.avi
    Формат : AVI
    Формат/Информация : Audio Video Interleave
    Размер файла : 746 Мбайт
    Продолжительность : 1 ч. 11 м.
    Общий поток : 1462 Кбит/сек
    Программа кодирования : VirtualDubModRus 1.5.10.2 (build 2542/release)
    Библиотека кодирования : VirtualDubMod build 2542/release
    Видео
    Идентификатор : 0
    Формат : MPEG-4 Visual
    Профиль формата : Advanced Simple@L5
    Параметр BVOP формата : 1
    Параметр QPel формата : Нет
    Параметр GMC формата : Без точки перехода
    Параметр матрицы формата : Выборочная
    Идентификатор кодека : XVID
    Идентификатор кодека/Подсказка : XviD
    Продолжительность : 1 ч. 11 м.
    Битрейт : 1325 Кбит/сек
    Ширина : 688 пикселей
    Высота : 512 пикселей
    Соотношение сторон : 4: 3
    Частота кадров : 25, 000 кадров/сек
    Цветовое пространство : YUV
    Субдискретизация насыщенности : 4: 2: 0
    Битовая глубина : 8 бит
    Тип развёртки : Прогрессивная
    Метод сжатия : С потерями
    Бит/(Пиксели*Кадры) : 0.150
    Размер потока : 675 Мбайт (91%)
    Библиотека кодирования : XviD 73
    Аудио
    Идентификатор : 1
    Формат : MPEG Audio
    Версия формата : Version 1
    Профиль формата : Layer 3
    Идентификатор кодека : 55
    Идентификатор кодека/Подсказка : MP3
    Продолжительность : 1 ч. 11 м.
    Вид битрейта : Постоянный
    Битрейт : 128 Кбит/сек
    Каналы : 2 канала
    Частота : 48, 0 КГц
    Метод сжатия : С потерями
    Размер потока : 65, 3 Мбайт (9%)
    Выравнивание : Соединение по промежуткам
    Продолжительность промежутка : 40 мс. (1, 00 видеокадр)
    Время предзагрузки промежутка : 504 мс.
    Библиотека кодирования : LAME3.99r
    Залил: AVPStudio
    Размер скачиваемого торрента: 745.69 MB (781907968 Bytes)


    Центр нападения (1946) DVDRip от New-Team
    загрузка...
    Рейтинг →
     (голосов: 1, оценка 4/5, голосовать можно 1 раз )

    Другие торренты по теме:

  • Центр нападения (1946) DVDRip-AVC от New-Team
  • Центр нападения


    • Комментарии (0):

      Информация

      Информация

        Посетители, находящиеся в группе Гости, не могут оставлять комментарии в данной новости.

        ↓ Меню



        ↓ Опрос

        Вы добавили сайт в закладки?
        Да
        Нет


        Top 10 за месяц (Фильмы)

        Дорога на Рюбецаль (Адольф Бергункер) / [1971, драма, военный, SАTRір]
        Дорога на Рюбецаль
        (скачиваний: 17)
        Когда мы дома / Коли ми вдома (3 сезон 1-10 серии из 20) (Максим Литвинов, Антон Щербаков) [2017, комедия, SАTRір]
        Когда мы дома/Коли ми вдома
        (скачиваний: 6)
        Еврочекин (1-20 выпуски из 20) / Єврочекiн (НЛО ТВ) [2015, путешествия, развлечения, трэвел-шоу, SATRip]
        Еврочекин
        (скачиваний: 5)
        Еда живая и мертвая / Научное расследование Сергея Малозёмова (Эфир от 17.12.2016) (Эфир от 03.12.2016) (ТК "НТВ") [2016, документальный, SATRip]
        Еда живая  и  мертвая/Научное расследование Сергея Малозёмова
        (скачиваний: 5)
        Музейные тайны (5 сезон: 1-13 серии из 13) / Mysteries at the Museum
        Музейные тайны
        (скачиваний: 5)
        В изоляции. Один шанс на двоих (4 сезон, 1-9 серии из 10) / Аlоnе (Валери Лалеф) [2017, документальный, познавательный, приключения, HDTVR
        В изоляции. Один шанс на двоих
        (скачиваний: 4)
        Патриот за границей (Эфир от 05.11.2016) / [2016, ТВ-шоу, SATRip]
        Патриот за границей
        (скачиваний: 4)
        Затерянный город / Загублене місто
        Затерянный город/Загублене місто
        (скачиваний: 4)
        Инспектор Джордж Джентли, 1-5 сезоны 1-15 серии из 15 / Inspector George Gently [Позитив] (Питер Флэннери) [2007-2012, детектив, криминал
        Инспектор Джордж Джентли,   1-5 сезон любимого сериалаы 1-15 серии из 15/Inspector George Gently Позитив
        (скачиваний: 4)
        Я худею (Эфир от 19.03.2016) (ТК "НТВ") / [2016, Тв-Шоу, SATRip]
        Я худею
        (скачиваний: 4)