.
Авторизация | Регистрация
Хочешь лучшие торренты? Добавь свой email!
Добавить
» » Снайпер / American Sniper (2014) DVD9 | Custom торрент скачать бесплатно




    Снайпер / American Sniper (2014) DVD9 | Custom торрент скачать бесплатно

    Опубликовал: Админ | Дата: 25-05-2015, 12:22 | Просмотров: 118

    Под прицелом у смерти

    Создали в: 2014
    Создали в: США/Warner Bros. Pictures, Village Roadshow Pictures, RatPac-Dune Entertainment, Mad Chance Productions, 22 Indiana Pictures, Malpaso Productions
    Категория жанра: Боевик, триллер, военный, биография
    Главный режиссер: Клинт Иствуд
    Продюсеры: Брэдли Купер, Клинт Иствуд, Эндрю Лазар
    Актеры: Брэдли Купер, Сиенна Миллер, Кайл Галлнер, Коул Конис, Бен Рид, Элиз Робертсон, Люк Саншайн, Трой Винсент, Брэндон Сальгадо, Кейр О`Доннелл
    Описание фильма:
    Экранизация мемуаров морского котика из Техаса Криса Кайла, который служил снайпером в Ираке и стал рекордсменом по числу убитых солдат противника, за что иракцы прозвали его дьяволом. Кроме самой войны, фильм рассказывает о воспоминаниях жены Криса, которая была свидетелем растущей привязанности мужа к его сослуживцам.
    Перевод текста: Дублированныйлицензия
    Субтитры: Английские, русские
    Дата мировой премьеры: 11 ноября 2014
    Дата российской премьеры: 5 марта 2015, Каро-Премьер
    Дата выхода DVD релиза: 28 мая 2015, CP Дистрибуция
    Время просмотра: 02: 07: 14
    Качество фильма видео: DVD9
    Информация о видео: 720x576@1024x576 (PAL 16: 9), ~4924 Кбит/сек
    Информация о звуке 1: AC3 5.1, 384 Кбит/сек Английский - оригинал
    Информация о звуке 2: AC3 5.1, 384 Кбит/сек Английский - описательный
    Информация о звуке 3: AC3 5.1, 448 Кбит/сек Русский - дублированный
    Доп. материалы: История Одного Солдата: Поход Снайпера
    DVDInfo:
    Title: American Sniper (2014) DVD9 PAL
    Size: 6.41 Gb ( 6 719 242, 00 KBytes ) - DVD-9
    Enabled regions: 1, 2, 3, 4, 5, 6, 7, 8
    VTS_01 :
    Play Length: 02: 07: 14+00: 00: 00+00: 29: 47
    Video: PAL 16: 9 (720x576) VBR, Auto Letterboxed
    Audio:
    English (Dolby AC3, 6 ch)
    English (Dolby AC3, 6 ch)
    Russian (Dolby AC3, 6 ch)
    Subtitles:
    English
    Russian
    Russian
    VTS_02 :
    Play Length: 00: 00: 10
    Video: PAL 16: 9 (720x576) VBR, Auto Letterboxed
    Audio:
    Not specified (Dolby AC3, 6 ch)
    Subtitles:
    Not specified
    VTS_03 :
    Play Length: 00: 00: 01+00: 04: 26+00: 00: 02
    Video: PAL 16: 9 (720x576) VBR, Auto Letterboxed
    Audio:
    English (Dolby AC3, 2 ch)
    * Menus Information *
    VIDEO_TS Menu
    Video:
    PAL 16: 9 (720x576) VBR
    Auto PanScan
    Language Unit :
    Title Menu
    VTS_01 Menu
    Video:
    PAL 16: 9 (720x576) VBR
    Auto PanScan
    Audio:
    Not specified (Dolby AC3, 2 ch)
    English Language Unit :
    Root Menu
    VTS_02 Menu
    Video:
    NTSC 4: 3 (720x480) VBR
    Auto PanScan, Auto Letterboxed
    Language Unit :
    Root Menu
    VTS_03 Menu
    Video:
    PAL 16: 9 (720x576) VBR
    Auto PanScan
    Language Unit :
    Root Menu
    MediaInfo:
    Общее
    Полное имя : F: ВидеоAmerican Sniper (2014) DVD9 PALVIDEO_TSVTS_01_2.VOB
    Формат : MPEG-PS
    Размер файла : 1024 Мбайт
    Продолжительность : 22 м.
    Режим общего битрейта : Переменный
    Общий поток : 6265 Кбит/сек
    Видео
    Идентификатор : 224 (0xE0)
    Формат : MPEG Video
    Версия формата : Version 2
    Профиль формата : Main@Main
    Параметр BVOP формата : Да
    Параметр матрицы формата : Выборочная
    Параметр GOP формата : Variable
    Структура изображения : Frame
    Продолжительность : 22 м.
    Вид битрейта : Переменный
    Битрейт : 4924 Кбит/сек
    Максимальный битрейт : 7500 Кбит/сек
    Ширина : 720 пикселей
    Высота : 576 пикселей
    Соотношение сторон : 16: 9
    Частота кадров : 25, 000 кадров/сек
    Стандарт вещания : PAL
    Цветовое пространство : YUV
    Субдискретизация насыщенности : 4: 2: 0
    Битовая глубина : 8 бит
    Тип развёртки : Чересстрочная
    Порядок развёртки : Верхнее поле первое
    Метод сжатия : С потерями
    Бит/(Пиксели*Кадры) : 0.475
    Временной код первого кадра : 01: 23: 33: 03
    Оригинал временного кода : Group of pictures t_head
    GOP, открыто/закрыто : Закрыто
    Размер потока : 805 Мбайт (79%)
    Аудио #1
    Идентификатор : 189 (0xBD)-128 (0x80)
    Формат : AC-3
    Формат/Информация : Audio Coding 3
    Расширение режима : CM (complete main)
    Параметр Endianness формата : Big
    Режим смешивания : DVD-Video
    Продолжительность : 22 м.
    Вид битрейта : Постоянный
    Битрейт : 384 Кбит/сек
    Каналы : 6 каналов
    Расположение каналов : Front: L C R, Side: L R, LFE
    Частота : 48, 0 КГц
    Битовая глубина : 16 бит
    Метод сжатия : С потерями
    Задержка видео : -560 мс.
    Размер потока : 62, 8 Мбайт (6%)
    Аудио #2
    Идентификатор : 189 (0xBD)-129 (0x81)
    Формат : AC-3
    Формат/Информация : Audio Coding 3
    Расширение режима : CM (complete main)
    Параметр Endianness формата : Big
    Режим смешивания : DVD-Video
    Продолжительность : 22 м.
    Вид битрейта : Постоянный
    Битрейт : 384 Кбит/сек
    Каналы : 6 каналов
    Расположение каналов : Front: L C R, Side: L R, LFE
    Частота : 48, 0 КГц
    Битовая глубина : 16 бит
    Метод сжатия : С потерями
    Задержка видео : -560 мс.
    Размер потока : 62, 8 Мбайт (6%)
    Аудио #3
    Идентификатор : 189 (0xBD)-130 (0x82)
    Формат : AC-3
    Формат/Информация : Audio Coding 3
    Расширение режима : CM (complete main)
    Параметр Endianness формата : Big
    Режим смешивания : DVD-Video
    Продолжительность : 22 м.
    Вид битрейта : Постоянный
    Битрейт : 448 Кбит/сек
    Каналы : 6 каналов
    Расположение каналов : Front: L C R, Side: L R, LFE
    Частота : 48, 0 КГц
    Битовая глубина : 16 бит
    Метод сжатия : С потерями
    Задержка видео : -560 мс.
    Размер потока : 73, 2 Мбайт (7%)
    Текст #1
    Идентификатор : 189 (0xBD)-32 (0x20)
    Формат : RLE
    Формат/Информация : Run-length encoding
    Режим смешивания : DVD-Video
    Продолжительность : 22 м.
    Задержка видео : 1 с. 400 мс.
    Текст #2
    Идентификатор : 189 (0xBD)-33 (0x21)
    Формат : RLE
    Формат/Информация : Run-length encoding
    Режим смешивания : DVD-Video
    Задержка видео : 920 мс.
    Меню
    Доп. информация:
    Исходником послужил лицензионный DVD9 из-за рубежа.
    Удалены: итальянская звуковая дорожка, итальянские, голландские, греческие субтитры (в меню кнопки закрыты).
    Французскую звуковую дорожку заменил на русскую вместе с субтитрами.
    Доп. материалы переведены русскими субтитрами.
    Меню: статичное, недействующие кнопки затерты и закрыты.
    Использовались программы: MKVExtractGUI2, TranzcodeGUI, SONY Vegas Pro, DVD ReMake Pro, PgcDemux, Adobe PhotoShop, MuxMan, Subtitle Workshop, MaestroSBT, DVDSubEdit.
    Скриншоты меню:

    Скриншоты:

    Залил: Саша 1992

    Онлайн видео Снайпер


    Размер скачиваемого торрента: 6.41 GB (6880503808 Bytes)

    Снайпер/American Sniper (2014) DVD9 | Custom
    загрузка...
    Рейтинг →
     (голосов: 1, оценка 5/5, голосовать можно 1 раз )

    Другие торренты по теме:

  • Снайпер: Герой сопротивления / Снайпер: Последний выстрел (1-4 серии из 4)
  • Снайпер: Герой сопротивления / Снайпер: Последний выстрел (1-4 серии из 4) (Арман Геворгян) [2015, военный, драма, приключения, SATRip]
  • Снайпер: Герой сопротивления / Снайпер: Последний выстрел (Арман Геворгян) [2015, военный, драма, приключения, HDTVRip-AVC]
  • Снайпер: Герой сопротивления / Снайпер: Последний выстрел (Арман Геворгян) [2015, военный, драма, приключения, HDTVRip 720p]
  • Sniper: Ghost Warrior / Снайпер: Воин-призрак [2012, Action (Shooter) / 3D / 1st Person] скачать через торрент бесплатно
  • Снайпер / American Sniper (2014) BDRip 720p | Чистый звук
  • Снайпер / American Sniper (2014) BDRip 720p от HDClub | Лицензия
  • Снайпер / American Sniper (2014) BDRip-AVC | Лицензия


    • Комментарии (0):

      Информация

      Информация

        Посетители, находящиеся в группе Гости, не могут оставлять комментарии в данной новости.

        ↓ Меню



        ↓ Опрос

        Вы добавили сайт в закладки?
        Да
        Нет


        Top 10 за месяц (Фильмы)

        Дорога на Рюбецаль (Адольф Бергункер) / [1971, драма, военный, SАTRір]
        Дорога на Рюбецаль
        (скачиваний: 17)
        Когда мы дома / Коли ми вдома (3 сезон 1-10 серии из 20) (Максим Литвинов, Антон Щербаков) [2017, комедия, SАTRір]
        Когда мы дома/Коли ми вдома
        (скачиваний: 6)
        Еда живая и мертвая / Научное расследование Сергея Малозёмова (Эфир от 17.12.2016) (Эфир от 03.12.2016) (ТК "НТВ") [2016, документальный, SATRip]
        Еда живая  и  мертвая/Научное расследование Сергея Малозёмова
        (скачиваний: 5)
        Музейные тайны (5 сезон: 1-13 серии из 13) / Mysteries at the Museum
        Музейные тайны
        (скачиваний: 5)
        Сквозь туман (Максим Счастнев) / [2017, военный, драма, WЕB-DL 1080р]
        Сквозь туман
        (скачиваний: 4)
        Патриот за границей (Эфир от 05.11.2016) / [2016, ТВ-шоу, SATRip]
        Патриот за границей
        (скачиваний: 4)
        Бешеный конь / Crazy Horse
        Бешеный конь/Crazy Horse
        (скачиваний: 4)
        Инспектор Джордж Джентли, 1-5 сезоны 1-15 серии из 15 / Inspector George Gently [Позитив] (Питер Флэннери) [2007-2012, детектив, криминал
        Инспектор Джордж Джентли,   1-5 сезон любимого сериалаы 1-15 серии из 15/Inspector George Gently Позитив
        (скачиваний: 4)
        Еврочекин (1-20 выпуски из 20) / Єврочекiн (НЛО ТВ) [2015, путешествия, развлечения, трэвел-шоу, SATRip]
        Еврочекин
        (скачиваний: 4)
        Я худею (Эфир от 19.03.2016) (ТК "НТВ") / [2016, Тв-Шоу, SATRip]
        Я худею
        (скачиваний: 4)